Azumanga Daioh

Subtítulos de series de anime finalizadas

Moderadores: harp951, Raku, SubsXHunters

Responder
Avatar de Usuario
NecroPaladín
Administrador
Mensajes: 1454
Registrado: Dom Ago 09, 2015 10:08 pm

Azumanga Daioh

Mensaje por NecroPaladín » Mié Jun 22, 2016 5:28 pm

Imagen

Imagen

Creado por Kiyohiko Azuma | DirectorHiroshi Nishikiori | Estudio J.C.Staff
Estado Finalizado | Año 2002 | Episodios 26 + OVA

Imagen
Fansub Rakuen & Poxitron | Idioma :esp: | Versión :dv: | Contenedor :ass: | Episodios 26 + OVA
Por NecroPaladín Imagen
Imagen
Fansub Rakuen & Poxitron + :dai: | Idioma :esp: | Versión :bd: | Contenedor :ass: | Episodios 02
Por Daiyoukai Imagen
Imagen

Imagen
Género Colegio, Comedia, Recuentos de la vida
Spoiler!
Un grupo de cinco chicas que asisten a la misma clase cada una con una personalidad totalmente distinta a la otra pero que en conjunto pasan un sin fin de disparatas y locas aventuras junto a una maestra que pocos quisieran tener. Pasa junto a Chiyo-chan y sus amigas de momentos divertidos en donde la lógica y el sentido común no tienen cabida.

scars121
Mensajes: 19
Registrado: Dom Ene 24, 2016 5:52 pm

Re: Azumanga Daioh

Mensaje por scars121 » Mié Jun 22, 2016 5:40 pm

Muchas gracias-

Avatar de Usuario
Luisppk
Mensajes: 40
Registrado: Sab Ago 15, 2015 4:57 am

Re: Azumanga Daioh

Mensaje por Luisppk » Sab May 06, 2017 3:57 am

¿Alguien la ha probado con version BD?
¿cual le hace?
Imagen

harp951
Moderador Global
Mensajes: 266
Registrado: Mié Ago 12, 2015 12:22 am

Re: Azumanga Daioh

Mensaje por harp951 » Sab May 06, 2017 4:52 am

Luisppk escribió:
Sab May 06, 2017 3:57 am
¿Alguien la ha probado con version BD?
¿cual le hace?
Solo existe en versión :dv: , es lo que hay. :mmm:

Avatar de Usuario
Luisppk
Mensajes: 40
Registrado: Sab Ago 15, 2015 4:57 am

Re: Azumanga Daioh

Mensaje por Luisppk » Sab May 06, 2017 9:41 pm

harp951 escribió:
Sab May 06, 2017 4:52 am
Luisppk escribió:
Sab May 06, 2017 3:57 am
¿Alguien la ha probado con version BD?
¿cual le hace?
Solo existe en versión :dv: , es lo que hay. :mmm:
Ok, gracias.
Tendré que descargar algunos caps de la version BD y probar.
Ojala tenga suerte. :only:

_______________
EDITO:
Descargué los subs para probarlos y a pesar que dicen ser de España, no me esperé 13 'vale' y 07 'joder' tan solo en el el cap 01.
Aparte obviamente nuestros queridos amigos del otro lado del charco han hecho todo lo posible por identificar su estilo de hablar muy a conciencia. Se lo tomaron en serio. :...:

La verdad, así no los puedo usar. Un poco es pasable, pero tan condenadamente abusivo, no la soporto.
Creo será mejor rehacerlos, aunque 26 caps es bastante trabajo. Además, también faltan karaokes y posiblemente algunos carteles.
Buscaré ayuda en el facebook del grupo.

________________
Edito (2) 22/mayo

Los subs aqui presentes en este post son 23.976 y la version bdrip mossis 1080 son 24.705fps
Spoiler!
General
Unique ID : 223678353753429550455101316311699988516 (0xA846E249ECA6AC2B8F215BDC5450A024)
Complete name : I:\downloads\Xunlei\[Moozzi2] Azumanga Daioh BD-BOX - TV + SP\[Moozzi2] Azumanga Daioh - 02 (BD 1440x1080 x.264 Flac).mkv
Format : Matroska
Format version : Version 4 / Version 2
File size : 454 MiB
Duration : 24 min 9 s
Overall bit rate mode : Variable
Overall bit rate : 2 629 kb/s
Encoded date : UTC 2016-08-05 03:58:57
Writing application : mkvmerge v8.8.0 ('Wind at my back') 64bit
Writing library : libebml v1.3.3 + libmatroska v1.4.4

Video
ID : 1
Format : AVC
Format/Info : Advanced Video Codec
Format profile : High@L4
Format settings, CABAC : Yes
Format settings, ReFrames : 5 frames
Codec ID : V_MPEG4/ISO/AVC
Duration : 24 min 9 s
Bit rate : 1 949 kb/s
Width : 1 440 pixels
Height : 1 080 pixels
Display aspect ratio : 4:3
Frame rate mode : Variable
Frame rate : 24.705 FPS
Original frame rate : 24.704 FPS
Color space : YUV
Chroma subsampling : 4:2:0
Bit depth : 8 bits
Scan type : Progressive
Bits/(Pixel*Frame) : 0.051
Stream size : 337 MiB (74%)
Writing library : x264 core 148 r2638 7599210
Encoding settings : cabac=1 / ref=5 / deblock=1:1:1 / analyse=0x3:0x113 / me=umh / subme=9 / psy=1 / psy_rd=0.70:0.00 / mixed_ref=1 / me_range=32 / chroma_me=1 / trellis=0 / 8x8dct=1 / cqm=0 / deadzone=21,11 / fast_pskip=0 / chroma_qp_offset=-2 / threads=12 / lookahead_threads=1 / sliced_threads=0 / nr=0 / decimate=1 / interlaced=0 / bluray_compat=0 / constrained_intra=0 / bframes=3 / b_pyramid=2 / b_adapt=2 / b_bias=0 / direct=1 / weightb=1 / open_gop=0 / weightp=2 / keyint=247 / keyint_min=24 / scenecut=40 / intra_refresh=0 / rc_lookahead=40 / rc=crf / mbtree=1 / crf=17.0 / qcomp=0.60 / qpmin=0 / qpmax=69 / qpstep=4 / ip_ratio=1.40 / aq=1:1.00
Language : Japanese
Default : Yes
Forced : No

Audio
ID : 2
Format : FLAC
Format/Info : Free Lossless Audio Codec
Codec ID : A_FLAC
Duration : 24 min 9 s
Bit rate mode : Variable
Bit rate : 678 kb/s
Channel(s) : 2 channels
Channel positions : Front: L R
Sampling rate : 48.0 kHz
Frame rate : 11.719 FPS (4096 spf)
Bit depth : 16 bits
Stream size : 117 MiB (26%)
Writing library : libFLAC 1.3.1 (UTC 2014-11-25)
Language : Japanese
Default : Yes
Forced : No
Los he probado rápidamente y se me ha complicado sincronizarlos.
Si alguien tiene una idea de como hacerlo de manera algo mas simple, agradecería dejen su comentario.
Imagen

Ryuuji

Re: Azumanga Daioh

Mensaje por Ryuuji » Mié Oct 23, 2019 4:54 am

Hola podrían resubir los subs de la versión BD, gracias de antemano

Responder